extratorrent - A Fan Made Alternative Login   |   Register
Important Information
Registrations are open now
-------------------------------------

Please click here to register with Extratorrent2 to recieve latest updates, add bookmarks and to post comments.

Friends
Friends

1) ProxyFix

Extratorrent2 > Categories > Movies > BlacKkKlansman 2018 720p WEB-DL x264 [MW] torrent


Browse Movies torrents

BlacKkKlansman 2018 720p WEB-DL x264 [MW] torrent


Download torrent: Download BlacKkKlansman 2018 720p WEB-DL x264 [MW] torrent Magnet link Bookmark Torrent: BlacKkKlansman 2018 720p WEB-DL x264 [MW]   BlacKkKlansman 2018 720p WEB-DL x264 [MW] torrent
Info hash: 70E0DE3257C06633401DF97346F258DAC3D33ED9
Category: Categories > Movies
Trackers:
View all torrent trackers >
Health:
 seeds: 20 ,  leechers: 5 |  Update >
Torrent language: English English
Total Size: 1.3 GB
Files List:
1    View torrent files >
Uploader:
moviezworldz
Torrent added: October 30, 2018, 4:22 am
Tags: Biography, Comedy, Crime
Users rating: ---, not rated. please login to rate.

Download BlacKkKlansman 2018 720p WEB-DL x264 [MW] torrent



Torrent Description





General
Format : Matroska
Format version : Version 4 / Version 2
File size : 1.34 GiB
Duration : 2 h 14 min
Overall bit rate : 1 424 kb/s

Video
ID : 1
Format : AVC
Format/Info : Advanced Video Codec
Format profile :
Format settings : CABAC / 4 Ref Frames
Format settings, CABAC : Yes
Format settings, RefFrames : 4 frames
Codec ID : V_MPEG4/ISO/AVC
Duration : 2 h 14 min
Bit rate : 1 300 kb/s
Width : 1 280 pixels
Height : 536 pixels
Display aspect ratio : 2.40:1
Frame rate mode : Constant
Frame rate : 23.976 (24000/1001) FPS
Color space : YUV
Chroma subsampling : 4:2:0
Bit depth : 8 bits
Scan type : Progressive
Bits/(Pixel*Frame) : 0.079
Stream size : 1.22 GiB (91%)
Writing library : x264 core 155 r2901 7d0ff22
Default : Yes
Forced : No

Audio
ID : 2
Format : AAC
Format/Info : Advanced Audio Codec
Format profile : LC
Codec ID : A_AAC-2
Duration : 2 h 14 min
Bit rate : 128 kb/s
Channel(s) : 2 channels
Channel positions : Front: L R
Sampling rate : 48.0 kHz
Frame rate : 46.875 FPS (1024 SPF)
Compression mode : Lossy
Stream size : 123 MiB (9%)
Language : English
Default : Yes
Forced : No


Click To Enlarge Image








Download BlacKkKlansman 2018 720p WEB-DL x264 [MW] torrent


Related Torrents


Comments   (please login to add your comment!)

2015 hindi dual audio     tremors     abs 40     chicas     motive     sz966     rambo     mina hevc     my boyfriend made me do it hadley     her s     freak37     crystal rae bangbus     alternative metal     disney s     jessa rhodes powder     dark souls 2     rim     jesus of nazareth 1080p     noun     superheros     life of the party     hotwife sofi keeps the blindfold on     jessa rhodes at the bar     hot professor     


Home - Browse Torrents

Made with love by an Extratorrent Fan!